<?xml version="1.0" standalone="no"?>
<!DOCTYPE svg PUBLIC "-//W3C//DTD SVG 1.1//EN" "http://www.w3.org/Graphics/SVG/1.1/DTD/svg11.dtd" >
<svg xmlns="http://www.w3.org/2000/svg">
<metadata>Generated by IcoMoon</metadata>
<defs>
<font id="rg" horiz-adv-x="1024">
<font-face units-per-em="1024" ascent="960" descent="-64" />
<missing-glyph horiz-adv-x="1024" />
<glyph unicode="&#x20;" horiz-adv-x="512" d="" />
<glyph unicode="&#xe900;" d="M640.295 889.698c7.188 0.295 21.465 0.886 28.652 1.182 0.492-7.582 1.378-22.843 1.871-30.425-7.582 0.591-22.843 1.674-30.425 2.265 0 6.695-0.098 20.283-0.098 26.978z" />
<glyph unicode="&#xe901;" d="M609.674 861.342c7.778-0.098 23.434-0.394 31.212-0.492-0.492-6.892-1.477-20.775-2.068-27.766-6.794-0.197-20.578-0.591-27.471-0.788-0.394 7.286-1.28 21.76-1.674 29.046z" />
<glyph unicode="&#xe902;" d="M681.649 861.538c18.511 6.302 26.88-24.812 7.975-28.849-18.412-6.006-27.372 24.911-7.975 28.849z" />
<glyph unicode="&#xe903;" d="M639.114 831.212c7.975 0.492 23.926 1.378 31.902 1.871-0.591-7.582-1.772-22.548-2.462-30.031-6.794 0.197-20.48 0.689-27.372 0.886-0.492 6.794-1.575 20.48-2.068 27.274z" />
<glyph unicode="&#xe904;" d="M840.665 819.889c10.338 1.477 30.917 4.431 41.157 5.809-2.363-9.157-7.286-27.471-9.649-36.628-11.126 9.649-21.957 19.692-31.508 30.818z" />
<glyph unicode="&#xe905;" d="M759.828 760.911c7.188 0.492 21.563 1.674 28.751 2.166 0.394-7.877 1.182-23.631 1.575-31.508-7.877 0.886-23.532 2.658-31.311 3.545 0.197 6.4 0.689 19.298 0.985 25.797z" />
<glyph unicode="&#xe906;" d="M111.655 684.898c0.492 22.449-4.135 62.326 28.554 62.425 143.754 3.446 287.705 0 431.458 1.575 18.806-1.477 46.769 3.643 55.237-18.609 6.991-52.874 1.182-106.634 2.954-159.803 68.726-0.591 137.452 0.394 206.277-0.197 18.905 0.197 44.505-3.348 45.391-27.274 4.825-93.932 0-188.357 2.166-282.388-1.575-24.812 4.628-53.268-10.929-74.732-21.169-11.914-46.868-7.483-70.203-9.551-1.477-5.022-4.529-14.868-6.006-19.889-5.612-15.458-10.338-32.197-22.351-44.209-37.711-2.462-58.88 38.302-85.268 59.471-25.895 11.028-54.154 7.385-81.329 4.529-81.92 0.098-163.84 1.575-245.858 3.052-18.511 68.234-4.431 139.618-10.437 209.231-51.397 2.363-74.24-48.443-110.080-75.323-12.308-11.422-35.742-5.908-41.748 9.945-4.431 19.889-4.332 40.369-5.711 60.554-25.797 2.363-54.843-3.348-77.391 12.505-10.437 95.508-1.182 192.591-4.726 288.689zM134.892 726.646c-9.058-104.763-0.492-210.314-3.742-315.471 24.615-3.742 50.117-5.218 73.551-14.375 10.929-22.351 12.209-47.754 17.329-71.778 39.582 34.166 74.831 78.474 129.28 87.926 0.591 17.625 1.083 35.249 1.674 52.874-54.154 0.492-108.603-1.378-162.56 4.431 10.437 7.975 21.858 16.049 35.643 15.262 42.142 1.674 84.382 0 126.622 1.674 0 19.889 0.098 39.68 0.295 59.569-42.338 1.575-84.677-0.197-126.917 1.575-13.785-0.788-25.009 7.68-35.643 15.065 139.126 8.468 278.843 6.006 418.265 5.612 1.674 52.48 2.166 104.96 1.575 157.44-55.631 4.234-111.458 4.529-167.188 3.151-102.695-2.363-205.785 5.218-308.185-2.954zM372.972 548.529c-1.674-116.48-1.477-232.96 0-349.538 101.317-4.628 202.831 2.166 304.049-2.658 35.545-11.323 58.683-44.997 87.729-67.151 5.218 20.972 10.24 42.043 15.458 63.015 26.388 2.954 52.775 5.809 79.163 9.157 2.56 115.791 2.363 231.582 0.098 347.274-162.068 1.871-324.332 2.068-486.498-0.098z" />
<glyph unicode="&#xe907;" d="M437.957 386.166c63.705 9.452 128.098 4.628 192.197 5.514 55.335-0.394 110.868 2.658 166.006-4.037-20.578-20.775-50.905-15.754-77.292-16.345-79.065 2.068-158.129-0.394-237.095 0.492-15.951-0.394-29.834 8.074-43.815 14.375z" />
<glyph unicode="&#xe908;" d="M438.548 287.705c60.062 11.126 121.206 5.612 181.76 6.498 58.486-0.689 117.268 3.151 175.458-4.332-20.677-20.48-50.609-15.557-76.898-16.049-75.815 1.772-151.631 0.295-227.545 0-18.708-0.985-36.037 6.695-52.775 13.883z" />
<glyph unicode="&#xe909;" d="M134.892 726.646c102.4 8.172 205.489 0.591 308.185 2.954 55.729 1.378 111.557 1.083 167.188-3.151 0.591-52.48 0.098-104.96-1.575-157.44-139.422 0.394-279.138 2.855-418.265-5.612 10.634-7.385 21.858-15.852 35.643-15.065 42.24-1.772 84.578 0 126.917-1.575-0.197-19.889-0.295-39.68-0.295-59.569-42.24-1.674-84.48 0-126.622-1.674-13.785 0.788-25.206-7.286-35.643-15.262 53.957-5.809 108.406-3.938 162.56-4.431-0.591-17.625-1.083-35.249-1.674-52.874-54.449-9.452-89.698-53.76-129.28-87.926-5.12 24.025-6.4 49.428-17.329 71.778-23.434 9.157-48.935 10.634-73.551 14.375 3.249 105.157-5.317 210.708 3.742 315.471zM197.612 654.375c0.098-4.726 0.197-14.080 0.295-18.806 90.88-0.886 181.858-1.772 272.738 0.788 0 4.332 0 12.997 0 17.329-90.978 2.363-181.957 1.477-273.034 0.689z" />
<glyph unicode="&#xe90a;" d="M729.6 732.062c7.286 0.492 21.957 1.674 29.243 2.265 0.098-7.778 0.295-23.434 0.394-31.212-7.582 0.492-22.745 1.477-30.326 1.969 0.197 6.695 0.492 20.185 0.689 26.978z" />
<glyph unicode="&#xe90b;" d="M801.083 732.849c18.511 6.4 26.88-25.009 7.778-28.849-18.511-5.908-26.683 24.714-7.778 28.849z" />
<glyph unicode="&#xe90c;" d="M759.532 702.031c7.582 0.985 22.646 2.855 30.228 3.742-0.197-7.975-0.689-24.123-0.985-32.098-7.286 0.591-21.957 1.969-29.243 2.658 0 6.4 0 19.298 0 25.698z" />
<glyph unicode="&#xe90d;" d="M197.612 654.375c91.077 0.788 182.055 1.674 273.034-0.689 0-4.332 0-12.997 0-17.329-90.88-2.56-181.858-1.674-272.738-0.788-0.098 4.726-0.197 14.080-0.295 18.806z" />
<glyph unicode="&#xe90e;" d="M372.972 548.529c162.166 2.166 324.431 1.969 486.498 0.098 2.265-115.692 2.462-231.483-0.098-347.274-26.388-3.348-52.775-6.203-79.163-9.157-5.218-20.972-10.24-42.043-15.458-63.015-29.046 22.154-52.185 55.828-87.729 67.151-101.218 4.825-202.732-1.969-304.049 2.658-1.477 116.578-1.674 233.058 0 349.538zM437.169 482.757c12.603-9.846 27.766-17.034 44.209-16.148 81.822-0.591 163.643-0.197 245.465 1.182 0 4.628-0.098 13.883-0.197 18.511-96.394-0.098-193.28 5.514-289.477-3.545zM437.957 386.166c13.982-6.302 27.865-14.769 43.815-14.375 78.966-0.886 158.031 1.575 237.095-0.492 26.388 0.591 56.714-4.431 77.292 16.345-55.138 6.695-110.671 3.643-166.006 4.037-64.098-0.886-128.492 3.938-192.197-5.514zM438.548 287.705c16.738-7.188 34.068-14.868 52.775-13.883 75.914 0.295 151.729 1.772 227.545 0 26.289 0.492 56.222-4.431 76.898 16.049-58.191 7.483-116.972 3.643-175.458 4.332-60.554-0.886-121.698 4.628-181.76-6.498z" />
<glyph unicode="&#xe90f;" d="M437.169 482.757c96.197 9.058 193.083 3.446 289.477 3.545 0.098-4.628 0.197-13.883 0.197-18.511-81.822-1.378-163.643-1.772-245.465-1.182-16.443-0.886-31.606 6.302-44.209 16.148z" />
<glyph unicode="&#xe910;" d="M145.526 162.363c71.582 10.338 143.951 17.329 216.222 16.935 82.018-1.477 163.938-2.954 245.858-3.052 27.077-2.068 54.252-4.037 81.329-4.529 26.388-21.169 47.557-61.932 85.268-59.471 12.012 12.012 16.738 28.751 22.351 44.209 23.237-6.991 47.951-11.717 68.135-25.994 6.695-20.48-18.806-24.32-32.394-30.523-90.978-25.895-186.486-29.342-280.418-34.068-128.394-3.938-257.28-1.575-384.788 14.769-38.498 6.006-78.375 10.831-113.92 27.668-10.831 3.545-14.868 10.929-12.111 22.154 30.72 20.677 68.825 25.305 104.468 31.902z" />
<glyph unicode="&#xe911;" d="M607.606 176.246c27.175 2.855 55.434 6.498 81.329-4.529-27.077 0.492-54.252 2.462-81.329 4.529z" />
<glyph unicode="&#xe912;" glyph-name="home" d="M1024 369.556l-512 397.426-512-397.428v162.038l512 397.426 512-397.428zM896 384v-384h-256v256h-256v-256h-256v384l384 288z" />
<glyph unicode="&#xe913;" glyph-name="home2" d="M512 928l-512-512 96-96 96 96v-416h256v192h128v-192h256v416l96-96 96 96-512 512zM512 512c-35.346 0-64 28.654-64 64s28.654 64 64 64c35.346 0 64-28.654 64-64s-28.654-64-64-64z" />
</font>
</defs>
</svg>
